中国丰满熟妇人妻AV无码,性姿势动态图片视频,少妇私密spa摸好高潮,日日噜噜夜夜狠狠视频欧美人

      <strike id="scuch"></strike>

      <code id="scuch"></code><tr id="scuch"></tr>

    1. 4K天堂

       找回密碼
       立即注冊
      查看: 5286|回復: 476
      打印 上一主題 下一主題

      [蜘蛛俠:英雄無歸].2021.2160p.BluRay.REMUX.HEVC.TrueHD.7.1-FraMeSToR 61.5GB

        [復制鏈接]

      該用戶從未簽到

      948

      主題

      950

      帖子

      1萬

      積分

      版主

      Rank: 7Rank: 7Rank: 7

      積分
      10606
      跳轉到指定樓層
      樓主
      發表于 2022-3-16 14:41:11 | 只看該作者 回帖獎勵 |倒序瀏覽 |閱讀模式


      ◎譯  名 蜘蛛俠:英雄無歸 / 新蜘蛛俠3 / 蜘蛛俠:無回之戰 / 蜘蛛俠:不戰無歸(港) / 蜘蛛人:無家日(臺) / 蜘蛛俠3:英雄末路 / 蜘蛛俠3:無家可歸 / Spider-Man 3 / Spider-Man: Phone Home / Spider-Man: Home-Wrecker / Spider-Man: Home Slice
      ◎片  名 Spider-Man: No Way Home
      ◎年  代 2021
      ◎產  地 美國 / 冰島
      ◎類  別 動作 / 科幻 / 冒險
      ◎語  言 英語 / 他加祿語
      ◎上映日期 2021-12-15(中國臺灣) / 2021-12-17(美國)
      ◎4K電影下載 http://www.lecennth.com/
      ◎豆瓣評分 7.5/10 (80556人評價)
      ◎豆瓣鏈接 https://movie.douban.com/subject/26933210/
      ◎片  長 148分鐘
      ◎導  演 喬·沃茨 Jon Watts (id:1350194)
      ◎編  劇 克里斯·麥克納 Chris McKenna (id:1331505)
             埃里克·薩默斯 Erik Sommers (id:1368514)
             斯坦·李 Stan Lee (id:1013888)
             史蒂夫·迪特寇 Steve Ditko (id:1041593)
             克里斯·麥基納 Chris McKenna (id:1028187)
      ◎演  員 湯姆·赫蘭德 Tom Holland (id:1325351)
             贊達亞 Zendaya (id:1325576)
             本尼迪克特·康伯巴奇 Benedict Cumberbatch (id:4KTT05)
             雅各布·巴特朗 Jacob Batalon (id:1376777)
             瑪麗莎·托梅 Marisa Tomei (id:1047974)
             喬恩·費儒 Jon Favreau (id:1027164)
             威廉·達福 Willem Dafoe (id:1010539)
             阿爾弗雷德·莫里納 Alfred Molina (id:1017897)
             杰米·?怂 Jamie Foxx (id:1036329)
             本尼迪克特·王 Benedict Wong (id:1301179)
             J·K·西蒙斯 J.K. Simmons (id:1147911)
             托比·馬奎爾 Tobey Maguire (id:1047997)
             安德魯·加菲爾德 Andrew Garfield (id:1022620)
             查理·考克斯 Charlie Cox (id:1036486)
             瑞斯·伊凡斯 Rhys Ifans (id:1010549)
             托馬斯·哈登·丘奇 Thomas Haden Church (id:1019041)
             安格瑞·賴斯 Angourie Rice (id:1334837)
             托尼·雷沃羅利 Tony Revolori (id:1204197)
             寶拉·紐瑟姆 Paula Newsome (id:1343185)
             漢尼拔·布勒斯 Hannibal Buress (id:1354114)
             馬丁·斯塔爾 Martin Starr (id:1022628)
             J·B·斯穆夫 J.B. Smoove (id:1036634)
             哈龍·汗 Haroon Khan (id:1390260)
             本·范德梅 Ben VanderMey (id:1384073)
             加里·維克斯 Gary Weeks (id:1019215)
             馬洛里·霍夫 Mallory Hoff (id:1421818)
             里賈納·陳婷 Regina Ting Chen (id:1357977)
             格倫·基奧 Glenn Keogh (id:1340924)
             帕麗絲·本杰明 Paris Benjamin (id:1256466)
             朱萬達斯·坎迪斯 Jwaundace Candece (id:1214914)
             泰勒·圣克萊爾 Taylor St. Clair (id:1336021)
             小豪爾赫·蘭登伯格 Jorge Lendeborg Jr. (id:1376970)
             何塞·阿爾弗雷多·費爾南德斯 José Alfredo Fernandez (id:1411163)
             約翰尼·塞雷 Johnny Serret (id:1385260)
             羅伯特·廷斯利 Robert Tinsley (id:1402482)
             哈里·赫蘭德 Harry Holland (id:1450046)
             湯姆·哈迪 Tom Hardy (id:1049489)
             克里斯托·費爾南德斯 Cristo Fernández (id:1461644)
             布萊德利·瑞安·奈斯貝爾 Bradley Ryan Knispel (id:1436519)
             阿里安·莫耶德 Arian Moayed (id:1468091)
             凱文·費奇 Kevin Feige (id:1340830)
             邁克·吉亞奇諾 Michael Giacchino (id:1027937)
             薩尼婭·米爾科維奇·海斯 Sanja Milkovic Hays (id:1051411)

      ◎簡  介  
        《蜘蛛俠:英雄無歸》是英雄系列三部曲的完結篇,也標志著漫威多元宇宙的正式開啟。此次,蜘蛛俠(湯姆·赫蘭德 飾)與奇異博士(本尼迪克特·康伯巴奇 飾)繼《復聯4》后再度聯手打響時空混戰。蜘蛛俠借助奇異博士操控時空的能力打開了時空通道,引發了前所未見的危機。

      ◎獲獎情況 (共3項)
        第94屆奧斯卡金像獎 (2022)
        最佳視覺效果(提名)

        第24屆美國服裝設計工會獎 (2022)
        科幻/奇幻題材電影最佳服裝設計(提名)
         └──薩尼婭·米爾科維奇·海斯 (id:1051411)

        第7屆豆瓣電影年度榜單 (2020)
        最值得期待的外語電影(提名)

      Video
      ID                                       : 1
      ID in the original source medium         : 4113 (0x1011)
      Format                                   : HEVC
      Format/Info                              : High Efficiency Video Coding
      Format profile                           : Main [email protected]@High
      HDR format                               : Dolby Vision, Version 1.0, dvhe.07.06, BL+EL+RPU, Blu-ray compatible / SMPTE ST 2086, HDR10 compatible
      Codec ID                                 : V_MPEGH/ISO/HEVC
      Duration                                 : 2 h 28 min
      Bit rate                                 : 54.3 Mb/s
      Width                                    : 3 840 pixels
      Height                                   : 2 160 pixels
      Display aspect ratio                     : 16:9
      Frame rate mode                          : Constant
      Frame rate                               : 23.976 (24000/4KTT189150) FPS
      Color space                              : YUV
      Chroma subsampling                       : 4:2:0 (Type 2)
      Bit depth                                : 10 bits
      Bits/(Pixel*Frame)                       : 0.273
      Stream size                              : 56.2 GiB (91%)
      Default                                  : Yes
      Forced                                   : No
      Color range                              : Limited
      Color primaries                          : BT.2020
      Transfer characteristics                 : PQ
      Matrix coefficients                      : BT.2020 non-constant
      Mastering display color primaries        : BT.2020
      Mastering display luminance              : min: 0.0001 cd/m2, max: 4KTTcd/m2
      Maximum Content Light Level              : 9978 cd/m2
      Maximum Frame-Average Light Level        : 867 cd/m2
      Original source medium                   : Blu-ray

      Audio #1
      ID                                       : 2
      Format                                   : MLP FBA 16-ch
      Format/Info                              : Meridian Lossless Packing FBA with 16-channel presentation
      Commercial name                          : Dolby TrueHD with Dolby Atmos
      Codec ID                                 : A_TRUEHD
      Duration                                 : 2 h 28 min
      Bit rate mode                            : Variable
      Bit rate                                 : 4 054 kb/s
      Maximum bit rate                         : 7 548 kb/s
      Channel(s)                               : 8 channels
      Channel layout                           : L R C LFE Ls Rs Lb Rb
      Sampling rate                            : 48.0 kHz
      Frame rate                               : 1 200.000 FPS (40 SPF)
      Compression mode                         : Lossless
      Stream size                              : 4.20 GiB (7%)
      Title                                    : TrueHD Atmos 7.1
      Language                                 : English
      Default                                  : Yes
      Forced                                   : No
      Number of dynamic objects                : 11
      Bed channel count                        : 1 channel
      Bed channel configuration                : LFE

      Audio #2
      ID                                       : 3
      Format                                   : AC-3
      Format/Info                              : Audio Coding 3
      Commercial name                          : Dolby Digital
      Codec ID                                 : A_AC3
      Duration                                 : 2 h 28 min
      Bit rate mode                            : Constant
      Bit rate                                 : 640 kb/s
      Channel(s)                               : 6 channels
      Channel layout                           : L R C LFE Ls Rs
      Sampling rate                            : 48.0 kHz
      Frame rate                               : 31.250 FPS (1536 SPF)
      Compression mode                         : Lossy
      Stream size                              : 678 MiB (1%)
      Title                                    : AC-3 5.1
      Language                                 : English
      Service kind                             : Complete Main
      Default                                  : No
      Forced                                   : No

      Text #1
      ID                                       : 4
      Format                                   : PGS
      Codec ID                                 : S_HDMV/PGS
      Codec ID/Info                            : Picture based subtitle format used on BDs/HD-DVDs
      Duration                                 : 2 h 27 min
      Bit rate                                 : 35.3 kb/s
      Count of elements                        : 3833
      Stream size                              : 37.4 MiB (0%)
      Title                                    : English
      Language                                 : English
      Default                                  : No
      Forced                                   : No

      Text #2
      ID                                       : 5
      Format                                   : PGS
      Codec ID                                 : S_HDMV/PGS
      Codec ID/Info                            : Picture based subtitle format used on BDs/HD-DVDs
      Duration                                 : 2 h 27 min
      Bit rate                                 : 41.5 kb/s
      Count of elements                        : 4404
      Stream size                              : 43.9 MiB (0%)
      Title                                    : English (SDH)
      Language                                 : English
      Default                                  : No
      Forced                                   : No

      Text #3
      ID                                       : 6
      Format                                   : PGS
      Codec ID                                 : S_HDMV/PGS
      Codec ID/Info                            : Picture based subtitle format used on BDs/HD-DVDs
      Duration                                 : 2 h 28 min
      Bit rate                                 : 28.5 kb/s
      Count of elements                        : 3821
      Stream size                              : 30.2 MiB (0%)
      Title                                    : Chinese (Cantonese)
      Language                                 : Chinese
      Default                                  : No
      Forced                                   : No

      Text #4
      ID                                       : 7
      Format                                   : PGS
      Codec ID                                 : S_HDMV/PGS
      Codec ID/Info                            : Picture based subtitle format used on BDs/HD-DVDs
      Duration                                 : 2 h 28 min
      Bit rate                                 : 29.5 kb/s
      Count of elements                        : 3945
      Stream size                              : 31.2 MiB (0%)
      Title                                    : Chinese (Simplified)
      Language                                 : Chinese
      Default                                  : No
      Forced                                   : No

      Text #5
      ID                                       : 8
      Format                                   : PGS
      Codec ID                                 : S_HDMV/PGS
      Codec ID/Info                            : Picture based subtitle format used on BDs/HD-DVDs
      Duration                                 : 2 h 28 min
      Bit rate                                 : 26.1 kb/s
      Count of elements                        : 3955
      Stream size                              : 27.6 MiB (0%)
      Title                                    : Chinese (Traditional)
      Language                                 : Chinese
      Default                                  : No
      Forced                                   : No

      Text #6
      ID                                       : 9
      Format                                   : PGS
      Codec ID                                 : S_HDMV/PGS
      Codec ID/Info                            : Picture based subtitle format used on BDs/HD-DVDs
      Duration                                 : 2 h 27 min
      Bit rate                                 : 27.3 kb/s
      Count of elements                        : 3708
      Stream size                              : 28.9 MiB (0%)
      Title                                    : French
      Language                                 : French
      Default                                  : No
      Forced                                   : No

      Text #7
      ID                                       : 10
      Format                                   : PGS
      Codec ID                                 : S_HDMV/PGS
      Codec ID/Info                            : Picture based subtitle format used on BDs/HD-DVDs
      Duration                                 : 2 h 28 min
      Bit rate                                 : 26.4 kb/s
      Count of elements                        : 4009
      Stream size                              : 27.9 MiB (0%)
      Title                                    : Korean
      Language                                 : Korean
      Default                                  : No
      Forced                                   : No

      Text #8
      ID                                       : 11
      Format                                   : PGS
      Codec ID                                 : S_HDMV/PGS
      Codec ID/Info                            : Picture based subtitle format used on BDs/HD-DVDs
      Duration                                 : 2 h 28 min
      Bit rate                                 : 32.8 kb/s
      Count of elements                        : 3809
      Stream size                              : 34.7 MiB (0%)
      Title                                    : Portuguese (Brazilian)
      Language                                 : Portuguese
      Default                                  : No
      Forced                                   : No

      Text #9
      ID                                       : 12
      Format                                   : PGS
      Codec ID                                 : S_HDMV/PGS
      Codec ID/Info                            : Picture based subtitle format used on BDs/HD-DVDs
      Duration                                 : 2 h 28 min
      Bit rate                                 : 30.4 kb/s
      Count of elements                        : 3821
      Stream size                              : 32.2 MiB (0%)
      Title                                    : Spanish (Latin American)
      Language                                 : Spanish
      Default                                  : No
      Forced                                   : No

      Text #10
      ID                                       : 13
      Format                                   : PGS
      Codec ID                                 : S_HDMV/PGS
      Codec ID/Info                            : Picture based subtitle format used on BDs/HD-DVDs
      Duration                                 : 2 h 28 min
      Bit rate                                 : 32.5 kb/s
      Count of elements                        : 3896
      Stream size                              : 34.4 MiB (0%)
      Title                                    : Thai
      Language                                 : Thai
      Default                                  : No
      Forced                                   : No

      Menu
      00:00:00.000                             : en:Chapter 1
      00:05:03.178                             : en:Chapter 2
      00:11:58.593                             : en:Chapter 3
      00:18:38.909                             : en:Chapter 4
      00:27:00.452                             : en:Chapter 5
      00:37:21.239                             : en:Chapter 6
      00:48:02.004                             : en:Chapter 7
      00:59:51.797                             : en:Chapter 8
      01:04:06.634                             : en:Chapter 9
      01:09:51.312                             : en:Chapter 10
      01:18:29.455                             : en:Chapter 11
      01:28:59.626                             : en:Chapter 12
      01:33:48.289                             : en:Chapter 13
      01:46:38.392                             : en:Chapter 14
      02:05:39.323                             : en:Chapter 15
      02:13:03.601                             : en:Chapter 16




      本帖子中包含更多資源

      您需要 登錄 才可以下載或查看,沒有帳號?立即注冊

      x
      回復

      使用道具 舉報

    2. TA的每日心情
      無聊
      2022-4-1 19:36
    3. 簽到天數: 1 天

      [LV.1]初來乍到

      0

      主題

      100

      帖子

      39

      積分

      新手上路

      Rank: 1

      積分
      39
      沙發
      發表于 2022-3-19 14:37:39 | 只看該作者
      thanks so much
      回復

      使用道具 舉報

    4. TA的每日心情
      開心
      2022-10-1 09:26
    5. 簽到天數: 1 天

      [LV.1]初來乍到

      0

      主題

      57

      帖子

      184

      積分

      初級會員

      Rank: 2

      積分
      184
      板凳
      發表于 2022-3-19 14:39:23 | 只看該作者
      謝謝分享,下載看看
      回復

      使用道具 舉報

      該用戶從未簽到

      0

      主題

      73

      帖子

      25

      積分

      新手上路

      Rank: 1

      積分
      25
      地板
      發表于 2022-3-19 14:40:38 | 只看該作者

      謝謝樓主分享
      回復

      使用道具 舉報

      該用戶從未簽到

      0

      主題

      24

      帖子

      15

      積分

      新手上路

      Rank: 1

      積分
      15
      5#
      發表于 2022-3-19 14:51:29 | 只看該作者
      hhhhhhhhhhhhhhhhhhhhhhhhhhhhhhhhhhhhhhhhhhhhhhhhh
      回復

      使用道具 舉報

      該用戶從未簽到

      0

      主題

      1

      帖子

      102

      積分

      永久VIP會員

      Rank: 50Rank: 50Rank: 50Rank: 50Rank: 50Rank: 50Rank: 50Rank: 50Rank: 50Rank: 50Rank: 50Rank: 50Rank: 50

      積分
      102
      6#
      發表于 2022-3-19 15:03:05 | 只看該作者
      Spider-Man 3 / Spider-Man: Phone Home / Spider-Man: Home-Wrecker / Spider-Man: Home Slice
      回復

      使用道具 舉報

      該用戶從未簽到

      0

      主題

      2

      帖子

      2

      積分

      新手上路

      Rank: 1

      積分
      2
      7#
      發表于 2022-3-19 15:23:32 | 只看該作者
      謝謝分享,下載來看看。
      回復

      使用道具 舉報

      該用戶從未簽到

      0

      主題

      2

      帖子

      2

      積分

      新手上路

      Rank: 1

      積分
      2
      8#
      發表于 2022-3-19 15:24:24 | 只看該作者

      Spider-Man 3 / Spider-Man: Phone Home / Spider-Man: Home-Wrecker / Spider-Man: Home Slice
      回復

      使用道具 舉報

      該用戶從未簽到

      0

      主題

      6

      帖子

      3

      積分

      新手上路

      Rank: 1

      積分
      3
      9#
      發表于 2022-3-19 15:31:35 | 只看該作者
      感謝樓主分享!
      回復

      使用道具 舉報

    6. TA的每日心情

      2022-4-1 22:44
    7. 簽到天數: 1 天

      [LV.1]初來乍到

      0

      主題

      86

      帖子

      76

      積分

      初級會員

      Rank: 2

      積分
      76
      10#
      發表于 2022-3-19 15:41:12 | 只看該作者
      謝謝!非常感謝!
      回復

      使用道具 舉報

      您需要登錄后才可以回帖 登錄 | 立即注冊

      本版積分規則

      為防丟失網站網址,敬請關注官方微信公眾號,再也不會迷路!
      4K天堂會一路堅持,共建高清電影愛好者的精神家園。

      Archiver|手機版|小黑屋|4K電影下載

      GMT+8, 2022-10-25 14:04 , Processed in 0.250000 second(s), 26 queries , Gzip On.

      Powered by Discuz! X3.4

      Copyright © 2001-2020, Tencent Cloud.

      快速回復 返回頂部 返回列表
      中国丰满熟妇人妻AV无码,性姿势动态图片视频,少妇私密spa摸好高潮,日日噜噜夜夜狠狠视频欧美人