中国丰满熟妇人妻AV无码,性姿势动态图片视频,少妇私密spa摸好高潮,日日噜噜夜夜狠狠视频欧美人

      <strike id="scuch"></strike>

      <code id="scuch"></code><tr id="scuch"></tr>

    1. 4K天堂

       找回密碼
       立即注冊
      查看: 10432|回復: 523
      打印 上一主題 下一主題

      [永恒族]Eternals.2021.2160p.BluRay.REMUX.HEVC.DTS-HD.MA.TrueHD.7.1-FGT 56.11GB

        [復制鏈接]

      該用戶從未簽到

      978

      主題

      980

      帖子

      1萬

      積分

      版主

      Rank: 7Rank: 7Rank: 7

      積分
      10763
      跳轉到指定樓層
      樓主
      發表于 2022-1-28 14:57:20 | 只看該作者 回帖獎勵 |倒序瀏覽 |閱讀模式

      ◎譯  名 永恒族 / 永恒神族 / The Eternals
      ◎片  名 Eternals
      ◎年  代 2021
      ◎產  地 美國
      ◎類  別 動作 / 科幻 / 奇幻 / 冒險
      ◎語  言 英語 / 美國手語 / 西班牙語 / 拉丁語 / 古希臘語
      ◎上映日期 2021-11-05(美國)
      ◎4K電影下載 http://www.lecennth.com/
      ◎豆瓣評分 5.9/10 (60193人評價)
      ◎豆瓣鏈接 https://movie.douban.com/subject/30223888/
      ◎片  長 157分鐘
      ◎導  演 趙婷 Chloé Zhao (id:1349079)
      ◎編  劇 趙婷 Chloé Zhao (id:1349079)
             帕特里克·伯利 Patrick Burleigh (id:1452381)
             瑞恩·弗雷波 Ryan Firpo (id:1393229)
             馬修·弗雷波 Matthew K. Firpo (id:1393230)
             杰克·科比 Jack Kirby (id:1050183)
      ◎演  員 安吉麗娜·朱莉 Angelina Jolie (id:1054447)
             嘉瑪·陳 Gemma Chan (id:1036516)
             理查德·麥登 Richard Madden (id:1314927)
             薩爾瑪·海耶克 Salma Hayek (id:1047986)
             基特·哈靈頓 Kit Harington (id:1314989)
             庫梅爾·南賈尼 Kumail Nanjiani (id:1334517)
             比爾·斯卡斯加德 Bill Skarsg?rd (id:1022798)
             莉亞·麥克休 Lia McHugh (id:1420182)
             布萊恩·泰里·亨利 Brian Tyree Henry (id:1390623)
             勞倫·利德洛夫 Lauren Ridloff (id:1420181)
             巴里·基奧恩 Barry Keoghan (id:1360874)
             馬東錫 Don Lee (id:1322205)
             哈里什·帕特爾 Harish Patel (id:1328805)
             哈斯·塞雷曼 Haaz Sleiman (id:1309189)
             妮基塔·查達哈 Nikkita Chadha (id:1449234)
             贊恩·阿爾·拉菲亞 Zain al-Rafeea (id:1393813)
             盧西婭·埃夫斯塔希奧 Lucia Efstathiou (id:1434959)
             大衛·卡耶 David Kaye (id:1113688)
             布倫達·洛倫娜·加西亞 Brenda Lorena Garcia (id:1449801)
             哈里·斯泰爾斯 Harry Styles (id:1323310)
             以掃·丹尼爾·克羅斯 Esai Daniel Cross (id:1463881)
             艾倫·斯科特 Alan Scott (id:1463882)
             漢娜·多德 Hannah Dodd (id:1463883)
             吉安尼·卡爾切蒂 Gianni Calchetti (id:1445091)
             凱文·費奇 Kevin Feige (id:1340830)
             拉民·賈瓦迪 Ramin Djawadi (id:1302385)
             本·戴維斯 Ben Davis (id:1385007)
             薩米·謝爾頓 Sammy Sheldon (id:1286999)

      ◎簡  介  
        公元前5000年,“天神族”的“審判者”阿里瑟姆從奧林匹亞星挑選10位擁有超能力的“永恒族”,派遣他們前往地球抵御“變異族”的入侵。幾千年來,永恒族一直幫助人類抵御變異族入侵。最后一批變異族在1521年被消滅后,永恒族內部對于是否繼續保護人類一事產生分歧,最終決定分開,并等待阿里瑟姆將他們召喚回母星。                                       
                                          時間到了現在,瑟西(嘉瑪·陳 Gemma Chan 飾)和絲派特(莉亞·麥克休 Lia McHugh 飾)一同住在英國倫敦。500年前,瑟西與前男友伊卡瑞斯(理查德·麥登 Richard Madden 飾)分開,并結交了在倫敦自然史博物館工作的戴恩·惠特曼(基特·哈靈頓 Kit Harington 飾)。一天晚上,一位名叫克羅的變異族突襲三人,伊卡瑞斯卻突然出現,暫時擊退克羅。瑟西、絲派特和伊卡瑞斯意識到情況不妙,于是決定緊急召集其他人以應對新的威脅…...
      Video
      ID                                       : 1
      ID in the original source medium         : 4113 (0x1011)
      Format                                   : HEVC
      Format/Info                              : High Efficiency Video Coding
      Format profile                           : Main [email protected]@High
      HDR format                               : SMPTE ST 2086, HDR10 compatible
      Codec ID                                 : V_MPEGH/ISO/HEVC
      Duration                                 : 2 h 35 min
      Bit rate                                 : 37.3 Mb/s
      Width                                    : 3 840 pixels
      Height                                   : 2 160 pixels
      Display aspect ratio                     : 16:9
      Frame rate mode                          : Constant
      Frame rate                               : 23.976 (24000/4KTT189150) FPS
      Color space                              : YUV
      Chroma subsampling                       : 4:2:0 (Type 2)
      Bit depth                                : 10 bits
      Bits/(Pixel*Frame)                       : 0.188
      Stream size                              : 40.6 GiB (72%)
      Writing library                          : ATEME Titan File 3.9.6 (4.9.6.2)        
      Language                                 : English
      Default                                  : No
      Forced                                   : No
      Color range                              : Limited
      Color primaries                          : BT.2020
      Transfer characteristics                 : PQ
      Matrix coefficients                      : BT.2020 non-constant
      Mastering display color primaries        : Display P3
      Mastering display luminance              : min: 0.0050 cd/m2, max: 4KTTcd/m2
      Original source medium                   : Blu-ray

      Audio #1
      ID                                       : 2
      ID in the original source medium         : 4352 (0x14KTT
      Format                                   : MLP FBA 16-ch
      Format/Info                              : Meridian Lossless Packing FBA with 16-channel presentation
      Commercial name                          : Dolby TrueHD with Dolby Atmos
      Codec ID                                 : A_TRUEHD
      Duration                                 : 2 h 35 min
      Bit rate mode                            : Variable
      Bit rate                                 : 4 396 kb/s
      Maximum bit rate                         : 2 400 kb/s
      Channel(s)                               : 8 channels
      Channel layout                           : L R C LFE Ls Rs Lb Rb
      Sampling rate                            : 48.0 kHz
      Frame rate                               : 1 200.000 FPS (40 SPF)
      Bit depth                                : 24 bits
      Compression mode                         : Lossless
      Stream size                              : 4.79 GiB (9%)
      Title                                    : TrueHD 7.1 Atoms
      Language                                 : English
      Default                                  : Yes
      Forced                                   : No
      Original source medium                   : Blu-ray
      Number of dynamic objects                : 13
      Bed channel count                        : 1 channel
      Bed channel configuration                : LFE

      Audio #2
      ID                                       : 3
      Format                                   : DTS XLL
      Format/Info                              : Digital Theater Systems
      Commercial name                          : DTS-HD Master Audio
      Codec ID                                 : A_DTS
      Duration                                 : 2 h 35 min
      Bit rate mode                            : Variable
      Bit rate                                 : 4 158 kb/s
      Channel(s)                               : 8 channels
      Channel layout                           : C L R LFE Lb Rb Lss Rss
      Sampling rate                            : 48.0 kHz
      Frame rate                               : 93.750 FPS (512 SPF)
      Bit depth                                : 24 bits
      Compression mode                         : Lossless
      Stream size                              : 4.53 GiB (8%)
      Title                                    : DTS-HD MA 7.1
      Language                                 : English
      Default                                  : No
      Forced                                   : No

      Audio #3
      ID                                       : 4
      ID in the original source medium         : 4352 (0x14KTT
      Format                                   : AC-3
      Format/Info                              : Audio Coding 3
      Commercial name                          : Dolby Digital
      Codec ID                                 : A_AC3
      Duration                                 : 2 h 35 min
      Bit rate mode                            : Constant
      Bit rate                                 : 640 kb/s
      Channel(s)                               : 6 channels
      Channel layout                           : L R C LFE Ls Rs
      Sampling rate                            : 48.0 kHz
      Frame rate                               : 31.250 FPS (1536 SPF)
      Compression mode                         : Lossy
      Stream size                              : 713 MiB (1%)
      Title                                    : DD 5.1
      Language                                 : English
      Service kind                             : Complete Main
      Default                                  : No
      Forced                                   : No
      Original source medium                   : Blu-ray

      Audio #4
      ID                                       : 5
      ID in the original source medium         : 4353 (0x1101)
      Format                                   : AC-3
      Format/Info                              : Audio Coding 3
      Commercial name                          : Dolby Digital
      Codec ID                                 : A_AC3
      Duration                                 : 2 h 35 min
      Bit rate mode                            : Constant
      Bit rate                                 : 320 kb/s
      Channel(s)                               : 2 channels
      Channel layout                           : L R
      Sampling rate                            : 48.0 kHz
      Frame rate                               : 31.250 FPS (1536 SPF)
      Compression mode                         : Lossy
      Stream size                              : 357 MiB (1%)
      Title                                    : DD 2.0
      Language                                 : English
      Service kind                             : Complete Main
      Default                                  : No
      Forced                                   : No
      Original source medium                   : Blu-ray

      Audio #5
      ID                                       : 6
      Format                                   : E-AC-3
      Format/Info                              : Enhanced AC-3
      Commercial name                          : Dolby Digital Plus
      Format profile                           : Blu-ray Disc
      Codec ID                                 : A_EAC3
      Duration                                 : 2 h 35 min
      Bit rate mode                            : Constant
      Bit rate                                 : 1 024 kb/s
      Channel(s)                               : 8 channels
      Channel layout                           : L R C LFE Ls Rs Lb Rb
      Sampling rate                            : 48.0 kHz
      Frame rate                               : 31.250 FPS (1536 SPF)
      Compression mode                         : Lossy
      Stream size                              : 1.11 GiB (2%)
      Title                                    : DDP 7.1
      Language                                 : French
      Service kind                             : Complete Main
      Default                                  : No
      Forced                                   : No

      Audio #6
      ID                                       : 7
      ID in the original source medium         : 4355 (0x1103)
      Format                                   : DTS
      Format/Info                              : Digital Theater Systems
      Codec ID                                 : A_DTS
      Duration                                 : 2 h 35 min
      Bit rate mode                            : Constant
      Bit rate                                 : 1 509 kb/s
      Channel(s)                               : 6 channels
      Channel layout                           : C L R Ls Rs LFE
      Sampling rate                            : 48.0 kHz
      Frame rate                               : 93.750 FPS (512 SPF)
      Bit depth                                : 24 bits
      Compression mode                         : Lossy
      Stream size                              : 1.64 GiB (3%)
      Title                                    : DTS 5.1
      Language                                 : Spanish
      Default                                  : No
      Forced                                   : No
      Original source medium                   : Blu-ray

      Audio #7
      ID                                       : 8
      Format                                   : E-AC-3
      Format/Info                              : Enhanced AC-3
      Commercial name                          : Dolby Digital Plus
      Format profile                           : Blu-ray Disc
      Codec ID                                 : A_EAC3
      Duration                                 : 2 h 35 min
      Bit rate mode                            : Constant
      Bit rate                                 : 1 024 kb/s
      Channel(s)                               : 8 channels
      Channel layout                           : L R C LFE Ls Rs Lb Rb
      Sampling rate                            : 48.0 kHz
      Frame rate                               : 31.250 FPS (1536 SPF)
      Compression mode                         : Lossy
      Stream size                              : 1.11 GiB (2%)
      Title                                    : DDP 7.1
      Language                                 : German
      Service kind                             : Complete Main
      Default                                  : No
      Forced                                   : No

      Audio #8
      ID                                       : 9
      Format                                   : E-AC-3
      Format/Info                              : Enhanced AC-3
      Commercial name                          : Dolby Digital Plus
      Format profile                           : Blu-ray Disc
      Codec ID                                 : A_EAC3
      Duration                                 : 2 h 35 min
      Bit rate mode                            : Constant
      Bit rate                                 : 1 024 kb/s
      Channel(s)                               : 8 channels
      Channel layout                           : L R C LFE Ls Rs Lb Rb
      Sampling rate                            : 48.0 kHz
      Frame rate                               : 31.250 FPS (1536 SPF)
      Compression mode                         : Lossy
      Stream size                              : 1.11 GiB (2%)
      Title                                    : DDP 7.1
      Language                                 : Italian
      Service kind                             : Complete Main
      Default                                  : No
      Forced                                   : No

      Text #1
      ID                                       : 10
      Format                                   : UTF-8
      Codec ID                                 : S_TEXT/UTF8
      Codec ID/Info                            : UTF-8 Plain Text
      Duration                                 : 2 h 32 min
      Bit rate                                 : 1 b/s
      Count of elements                        : 86
      Stream size                              : 1.88 KiB (0%)
      Title                                    : FORCED
      Language                                 : English
      Default                                  : No
      Forced                                   : Yes

      Text #2
      ID                                       : 11
      Format                                   : UTF-8
      Codec ID                                 : S_TEXT/UTF8
      Codec ID/Info                            : UTF-8 Plain Text
      Duration                                 : 2 h 33 min
      Bit rate                                 : 42 b/s
      Count of elements                        : 1776
      Stream size                              : 47.7 KiB (0%)
      Language                                 : English
      Default                                  : Yes
      Forced                                   : No

      Text #3
      ID                                       : 12
      Format                                   : UTF-8
      Codec ID                                 : S_TEXT/UTF8
      Codec ID/Info                            : UTF-8 Plain Text
      Duration                                 : 2 h 33 min
      Bit rate                                 : 51 b/s
      Count of elements                        : 2202
      Stream size                              : 57.9 KiB (0%)
      Title                                    : SDH
      Language                                 : English
      Default                                  : No
      Forced                                   : No

      Text #4
      ID                                       : 13
      ID in the original source medium         : 4768 (0x12A0)
      Format                                   : PGS
      Muxing mode                              : zlib
      Codec ID                                 : S_HDMV/PGS
      Codec ID/Info                            : Picture based subtitle format used on BDs/HD-DVDs
      Duration                                 : 2 h 35 min
      Bit rate                                 : 34.8 kb/s
      Count of elements                        : 4427
      Stream size                              : 38.7 MiB (0%)
      Language                                 : English
      Default                                  : No
      Forced                                   : No
      Original source medium                   : Blu-ray

      Text #5
      ID                                       : 14
      ID in the original source medium         : 4769 (0x12A1)
      Format                                   : PGS
      Muxing mode                              : zlib
      Codec ID                                 : S_HDMV/PGS
      Codec ID/Info                            : Picture based subtitle format used on BDs/HD-DVDs
      Duration                                 : 2 h 35 min
      Bit rate                                 : 22.6 kb/s
      Count of elements                        : 3137
      Stream size                              : 25.1 MiB (0%)
      Language                                 : French
      Default                                  : No
      Forced                                   : No
      Original source medium                   : Blu-ray

      Text #6
      ID                                       : 15
      ID in the original source medium         : 4770 (0x12A2)
      Format                                   : PGS
      Muxing mode                              : zlib
      Codec ID                                 : S_HDMV/PGS
      Codec ID/Info                            : Picture based subtitle format used on BDs/HD-DVDs
      Duration                                 : 2 h 35 min
      Bit rate                                 : 24.7 kb/s
      Count of elements                        : 3259
      Stream size                              : 27.5 MiB (0%)
      Language                                 : Spanish
      Default                                  : No
      Forced                                   : No
      Original source medium                   : Blu-ray

      Text #7
      ID                                       : 16
      ID in the original source medium         : 4771 (0x12A3)
      Format                                   : PGS
      Muxing mode                              : zlib
      Codec ID                                 : S_HDMV/PGS
      Codec ID/Info                            : Picture based subtitle format used on BDs/HD-DVDs
      Duration                                 : 2 h 35 min
      Bit rate                                 : 23.8 kb/s
      Count of elements                        : 3007
      Stream size                              : 26.5 MiB (0%)
      Language                                 : German
      Default                                  : No
      Forced                                   : No
      Original source medium                   : Blu-ray

      Text #8
      ID                                       : 17
      ID in the original source medium         : 4772 (0x12A4)
      Format                                   : PGS
      Muxing mode                              : zlib
      Codec ID                                 : S_HDMV/PGS
      Codec ID/Info                            : Picture based subtitle format used on BDs/HD-DVDs
      Duration                                 : 2 h 35 min
      Bit rate                                 : 25.9 kb/s
      Count of elements                        : 3269
      Stream size                              : 28.8 MiB (0%)
      Language                                 : Italian
      Default                                  : No
      Forced                                   : No
      Original source medium                   : Blu-ray

      Text #9
      ID                                       : 18
      ID in the original source medium         : 4773 (0x12A5)
      Format                                   : PGS
      Muxing mode                              : zlib
      Codec ID                                 : S_HDMV/PGS
      Codec ID/Info                            : Picture based subtitle format used on BDs/HD-DVDs
      Duration                                 : 2 h 35 min
      Bit rate                                 : 24.9 kb/s
      Count of elements                        : 2802
      Stream size                              : 27.7 MiB (0%)
      Language                                 : Dutch
      Default                                  : No
      Forced                                   : No
      Original source medium                   : Blu-ray

      Text #10
      ID                                       : 19
      ID in the original source medium         : 4774 (0x12A6)
      Format                                   : PGS
      Muxing mode                              : zlib
      Codec ID                                 : S_HDMV/PGS
      Codec ID/Info                            : Picture based subtitle format used on BDs/HD-DVDs
      Duration                                 : 2 h 35 min
      Bit rate                                 : 22.6 kb/s
      Count of elements                        : 2218
      Stream size                              : 25.2 MiB (0%)
      Language                                 : Danish
      Default                                  : No
      Forced                                   : No
      Original source medium                   : Blu-ray

      Text #11
      ID                                       : 20
      ID in the original source medium         : 4775 (0x12A7)
      Format                                   : PGS
      Muxing mode                              : zlib
      Codec ID                                 : S_HDMV/PGS
      Codec ID/Info                            : Picture based subtitle format used on BDs/HD-DVDs
      Duration                                 : 2 h 35 min
      Bit rate                                 : 27.1 kb/s
      Count of elements                        : 3334
      Stream size                              : 30.1 MiB (0%)
      Language                                 : Finnish
      Default                                  : No
      Forced                                   : No
      Original source medium                   : Blu-ray

      Text #12
      ID                                       : 21
      ID in the original source medium         : 4776 (0x12A8)
      Format                                   : PGS
      Muxing mode                              : zlib
      Codec ID                                 : S_HDMV/PGS
      Codec ID/Info                            : Picture based subtitle format used on BDs/HD-DVDs
      Duration                                 : 2 h 35 min
      Bit rate                                 : 24.0 kb/s
      Count of elements                        : 3308
      Stream size                              : 26.8 MiB (0%)
      Language                                 : Norwegian
      Default                                  : No
      Forced                                   : No
      Original source medium                   : Blu-ray

      Text #13
      ID                                       : 22
      ID in the original source medium         : 4777 (0x12A9)
      Format                                   : PGS
      Muxing mode                              : zlib
      Codec ID                                 : S_HDMV/PGS
      Codec ID/Info                            : Picture based subtitle format used on BDs/HD-DVDs
      Duration                                 : 2 h 35 min
      Bit rate                                 : 23.5 kb/s
      Count of elements                        : 2634
      Stream size                              : 26.2 MiB (0%)
      Language                                 : Swedish
      Default                                  : No
      Forced                                   : No
      Original source medium                   : Blu-ray

      Text #14
      ID                                       : 23
      ID in the original source medium         : 4778 (0x12AA)
      Format                                   : PGS
      Muxing mode                              : zlib
      Codec ID                                 : S_HDMV/PGS
      Codec ID/Info                            : Picture based subtitle format used on BDs/HD-DVDs
      Duration                                 : 2 h 35 min
      Bit rate                                 : 1 101 b/s
      Count of elements                        : 175
      Stream size                              : 1.22 MiB (0%)
      Title                                    : FORCED
      Language                                 : English
      Default                                  : No
      Forced                                   : No
      Original source medium                   : Blu-ray

      Text #15
      ID                                       : 24
      ID in the original source medium         : 4779 (0x12AB)
      Format                                   : PGS
      Muxing mode                              : zlib
      Codec ID                                 : S_HDMV/PGS
      Codec ID/Info                            : Picture based subtitle format used on BDs/HD-DVDs
      Duration                                 : 2 h 35 min
      Bit rate                                 : 1 314 b/s
      Count of elements                        : 197
      Stream size                              : 1.46 MiB (0%)
      Title                                    : FORCED
      Language                                 : French
      Default                                  : No
      Forced                                   : No
      Original source medium                   : Blu-ray

      Text #16
      ID                                       : 25
      ID in the original source medium         : 4780 (0x12AC)
      Format                                   : PGS
      Muxing mode                              : zlib
      Codec ID                                 : S_HDMV/PGS
      Codec ID/Info                            : Picture based subtitle format used on BDs/HD-DVDs
      Duration                                 : 2 h 35 min
      Bit rate                                 : 1 293 b/s
      Count of elements                        : 175
      Stream size                              : 1.44 MiB (0%)
      Title                                    : FORCED
      Language                                 : Spanish
      Default                                  : No
      Forced                                   : No
      Original source medium                   : Blu-ray

      Text #17
      ID                                       : 26
      ID in the original source medium         : 4781 (0x12AD)
      Format                                   : PGS
      Muxing mode                              : zlib
      Codec ID                                 : S_HDMV/PGS
      Codec ID/Info                            : Picture based subtitle format used on BDs/HD-DVDs
      Duration                                 : 2 h 35 min
      Bit rate                                 : 1 153 b/s
      Count of elements                        : 165
      Stream size                              : 1.28 MiB (0%)
      Title                                    : FORCED
      Language                                 : German
      Default                                  : No
      Forced                                   : No
      Original source medium                   : Blu-ray

      Text #18
      ID                                       : 27
      ID in the original source medium         : 4782 (0x12AE)
      Format                                   : PGS
      Muxing mode                              : zlib
      Codec ID                                 : S_HDMV/PGS
      Codec ID/Info                            : Picture based subtitle format used on BDs/HD-DVDs
      Duration                                 : 2 h 35 min
      Bit rate                                 : 1 287 b/s
      Count of elements                        : 193
      Stream size                              : 1.43 MiB (0%)
      Title                                    : FORCED
      Language                                 : Italian
      Default                                  : No
      Forced                                   : No
      Original source medium                   : Blu-ray

      Menu
      00:00:00.000                             : en:Chapter 01
      00:06:42.902                             : en:Chapter 02
      00:20:22.888                             : en:Chapter 03
      00:31:11.703                             : en:Chapter 04
      00:35:04.435                             : en:Chapter 05
      00:43:01.245                             : en:Chapter 06
      00:49:29.007                             : en:Chapter 07
      00:55:49.804                             : en:Chapter 08
      01:02:29.537                             : en:Chapter 09
      01:07:56.530                             : en:Chapter 10
      01:10:39.568                             : en:Chapter 11
      01:18:58.191                             : en:Chapter 12
      01:24:36.780                             : en:Chapter 13
      01:29:56.516                             : en:Chapter 14
      01:36:02.840                             : en:Chapter 15
      01:42:47.578                             : en:Chapter 16
      01:46:27.589                             : en:Chapter 17
      01:51:51.162                             : en:Chapter 18
      01:55:57.951                             : en:Chapter 19
      02:01:46.132                             : en:Chapter 20
      02:06:30.165                             : en:Chapter 21
      02:11:41.727                             : en:Chapter 22
      02:16:32.350                             : en:Chapter 23
      02:23:10.665                             : en:Chapter 24
      02:25:45.027                             : en:Chapter 25
      02:27:56.492                             : en:Chapter 26
      02:34:26.882                             : en:Chapter 27





      本帖子中包含更多資源

      您需要 登錄 才可以下載或查看,沒有帳號?立即注冊

      x
      回復

      使用道具 舉報

    2. TA的每日心情
      開心
      2022-10-1 12:01
    3. 簽到天數: 10 天

      [LV.3]偶爾看看II

      0

      主題

      80

      帖子

      103

      積分

      初級會員

      Rank: 2

      積分
      103
      沙發
      發表于 2022-1-28 23:37:02 | 只看該作者
      6666666666666666
      回復

      使用道具 舉報

      該用戶從未簽到

      0

      主題

      8

      帖子

      51

      積分

      初級會員

      Rank: 2

      積分
      51
      板凳
      發表于 2022-1-29 00:56:21 | 只看該作者
      大師范生發順豐
      回復

      使用道具 舉報

      該用戶從未簽到

      0

      主題

      48

      帖子

      119

      積分

      初級會員

      Rank: 2

      積分
      119
      地板
      發表于 2022-1-29 01:35:45 | 只看該作者
      ++++++++++++++
      回復

      使用道具 舉報

      該用戶從未簽到

      0

      主題

      31

      帖子

      48

      積分

      新手上路

      Rank: 1

      積分
      48
      5#
      發表于 2022-1-29 02:32:10 | 只看該作者
      感謝分享!
      回復

      使用道具 舉報

      該用戶從未簽到

      0

      主題

      164

      帖子

      27

      積分

      新手上路

      Rank: 1

      積分
      27
      6#
      發表于 2022-1-29 02:33:23 | 只看該作者
      謝謝樓主的無私分享!
      回復

      使用道具 舉報

      該用戶從未簽到

      0

      主題

      1

      帖子

      1

      積分

      新手上路

      Rank: 1

      積分
      1
      7#
      發表于 2022-1-29 02:34:47 | 只看該作者
      感謝分享666666
      回復

      使用道具 舉報

    4. TA的每日心情
      開心
      2022-10-25 01:36
    5. 簽到天數: 2 天

      [LV.1]初來乍到

      0

      主題

      68

      帖子

      185

      積分

      初級會員

      Rank: 2

      積分
      185
      8#
      發表于 2022-1-29 03:23:28 | 只看該作者
      終於等到4K高畫質版本,感謝分享
      回復

      使用道具 舉報

    6. TA的每日心情
      無聊
      2022-4-2 00:51
    7. 簽到天數: 1 天

      [LV.1]初來乍到

      0

      主題

      43

      帖子

      50

      積分

      初級會員

      Rank: 2

      積分
      50
      9#
      發表于 2022-1-29 04:00:49 | 只看該作者

      感謝分享888888
      回復

      使用道具 舉報

      該用戶從未簽到

      0

      主題

      2

      帖子

      1

      積分

      新手上路

      Rank: 1

      積分
      1
      10#
      發表于 2022-1-29 04:49:55 | 只看該作者
      第一次下載6666666
      回復

      使用道具 舉報

      您需要登錄后才可以回帖 登錄 | 立即注冊

      本版積分規則

      為防丟失網站網址,敬請關注官方微信公眾號,再也不會迷路!
      4K天堂會一路堅持,共建高清電影愛好者的精神家園。

      Archiver|手機版|小黑屋|4K電影下載

      GMT+8, 2022-12-2 01:23 , Processed in 0.171868 second(s), 26 queries , Gzip On.

      Powered by Discuz! X3.4

      Copyright © 2001-2020, Tencent Cloud.

      快速回復 返回頂部 返回列表
      中国丰满熟妇人妻AV无码,性姿势动态图片视频,少妇私密spa摸好高潮,日日噜噜夜夜狠狠视频欧美人