中国丰满熟妇人妻AV无码,性姿势动态图片视频,少妇私密spa摸好高潮,日日噜噜夜夜狠狠视频欧美人

      <strike id="scuch"></strike>

      <code id="scuch"></code><tr id="scuch"></tr>

    1. 4K天堂

       找回密碼
       立即注冊
      查看: 5766|回復: 546
      打印 上一主題 下一主題

      [永恒族]Eternals.2021.2160p.WEB-DL.x265.10bit.SDR.DDP5.1.Atmos-NOGRP 22.89GB

        [復制鏈接]

      該用戶從未簽到

      978

      主題

      980

      帖子

      1萬

      積分

      版主

      Rank: 7Rank: 7Rank: 7

      積分
      10763
      跳轉到指定樓層
      樓主
      發表于 2022-1-13 11:47:32 | 只看該作者 回帖獎勵 |倒序瀏覽 |閱讀模式

      ◎譯  名 永恒族/The Eternals/永恒神族
      ◎片  名 Eternals
      ◎年  代 2021
      ◎產  地 美國
      ◎類  別 動作 / 科幻 / 奇幻 / 冒險
      ◎語  言 英語,美國手語,西班牙語,拉丁語,古希臘語
      ◎上映日期 2021-11-05(美國)
      ◎豆瓣評分 6.3/10 from 20892 users
      ◎豆瓣鏈接 https://movie.douban.com/subject/30223888/
      ◎片  長 157分鐘
      ◎導  演 趙婷 Chloé Zhao
      ◎編  劇 趙婷 Chloé Zhao / 帕特里克·伯利 Patrick Burleigh / 瑞恩·弗雷波 Ryan Firpo / 馬修·弗雷波 Matthew K. Firpo / 杰克·科比 Jack Kirby
      ◎主  演 嘉瑪·陳 Gemma Chan
             理查德·麥登 Richard Madden
             安吉麗娜·朱莉 Angelina Jolie
             薩爾瑪·海耶克 Salma Hayek
             庫梅爾·南賈尼 Kumail Nanjiani
             莉亞·麥克休 Lia McHugh
             布萊恩·泰里·亨利 Brian Tyree Henry
             勞倫·利德洛夫 Lauren Ridloff
             巴里·基奧恩 Barry Keoghan
             馬東錫 Don Lee
             基特·哈靈頓 Kit Harington
             哈里什·帕特爾 Harish Patel
             比爾·斯卡斯加德 Bill Skarsg?rd
             哈斯·塞雷曼 Haaz Sleiman
             以掃·丹尼爾·克羅斯 Esai Daniel Cross
             哈里·斯泰爾斯 Harry Styles
             艾倫·斯科特 Alan Scott
             漢娜·多德 Hannah Dodd
             妮基塔·查達哈 Nikkita Chadha
             格雷厄姆·?怂 Grahame Fox
             贊恩·阿爾·拉菲亞 Zain al-Rafeea
             盧西婭·埃夫斯塔希奧 Lucia Efstathiou
             帕頓·奧斯瓦爾特 Patton Oswalt
             大衛·卡耶 David Kaye
             馬赫沙拉·阿里 Mahershala Ali
             布倫達·洛倫娜·加西亞 Brenda Lorena Garcia
             吉安尼·卡爾切蒂 Gianni Calchetti

      ◎簡  介  

        漫威影業出品的《永恒族》講述了一群遠古英雄的故事。他們來自于遙遠的星球,從人類誕生之初就保護著地球。當已銷聲匿跡多時的異常族怪物神秘地卷土重來時,永恒族被迫重新團聚,以再次保護人類。
      Video
      ID                                       : 1
      Format                                   : HEVC
      Format/Info                              : High Efficiency Video Coding
      Format profile                           : Main [email protected]@High
      Codec ID                                 : V_MPEGH/ISO/HEVC
      Duration                                 : 2 h 35 min
      Bit rate                                 : 20.2 Mb/s
      Width                                    : 3 840 pixels
      Height                                   : 1 608 pixels
      Display aspect ratio                     : 2.40:1
      Frame rate mode                          : Constant
      Frame rate                               : 23.976 (24000/4KTT189150) FPS
      Color space                              : YUV
      Chroma subsampling                       : 4:2:0
      Bit depth                                : 10 bits
      Bits/(Pixel*Frame)                       : 0.137
      Stream size                              : 22.1 GiB (96%)
      Default                                  : Yes
      Forced                                   : No
      Color range                              : Limited
      Color primaries                          : BT.709
      Transfer characteristics                 : BT.709
      Matrix coefficients                      : BT.709

      Audio
      ID                                       : 2
      Format                                   : E-AC-3 JOC
      Format/Info                              : Enhanced AC-3 with Joint Object Coding
      Commercial name                          : Dolby Digital Plus with Dolby Atmos
      Codec ID                                 : A_EAC3
      Duration                                 : 2 h 35 min
      Bit rate mode                            : Constant
      Bit rate                                 : 768 kb/s
      Channel(s)                               : 6 channels
      Channel layout                           : L R C LFE Ls Rs
      Sampling rate                            : 48.0 kHz
      Frame rate                               : 31.250 FPS (1536 SPF)
      Compression mode                         : Lossy
      Stream size                              : 856 MiB (4%)
      Language                                 : English
      Service kind                             : Complete Main
      Default                                  : Yes
      Forced                                   : No
      Complexity index                         : 16
      Number of dynamic objects                : 15
      Bed channel count                        : 1 channel
      Bed channel configuration                : LFE

      Text #1
      ID                                       : 3
      Format                                   : UTF-8
      Codec ID                                 : S_TEXT/UTF8
      Codec ID/Info                            : UTF-8 Plain Text
      Duration                                 : 2 h 33 min
      Bit rate                                 : 41 b/s
      Count of elements                        : 1784
      Stream size                              : 46.6 KiB (0%)
      Language                                 : English
      Default                                  : Yes
      Forced                                   : No

      Text #2
      ID                                       : 4
      Format                                   : UTF-8
      Codec ID                                 : S_TEXT/UTF8
      Codec ID/Info                            : UTF-8 Plain Text
      Duration                                 : 2 h 33 min
      Bit rate                                 : 51 b/s
      Count of elements                        : 2210
      Stream size                              : 58.2 KiB (0%)
      Title                                    : SDH
      Language                                 : English
      Default                                  : No
      Forced                                   : No

      Text #3
      ID                                       : 5
      Format                                   : UTF-8
      Codec ID                                 : S_TEXT/UTF8
      Codec ID/Info                            : UTF-8 Plain Text
      Duration                                 : 2 h 35 min
      Bit rate                                 : 41 b/s
      Count of elements                        : 1645
      Stream size                              : 47.6 KiB (0%)
      Language                                 : Spanish
      Default                                  : No
      Forced                                   : No

      Text #4
      ID                                       : 6
      Format                                   : UTF-8
      Codec ID                                 : S_TEXT/UTF8
      Codec ID/Info                            : UTF-8 Plain Text
      Duration                                 : 2 h 35 min
      Bit rate                                 : 2 b/s
      Count of elements                        : 116
      Stream size                              : 3.13 KiB (0%)
      Title                                    : FORCED
      Language                                 : Spanish
      Default                                  : No
      Forced                                   : No




      本帖子中包含更多資源

      您需要 登錄 才可以下載或查看,沒有帳號?立即注冊

      x
      回復

      使用道具 舉報

    2. TA的每日心情

      2022-4-1 21:24
    3. 簽到天數: 1 天

      [LV.1]初來乍到

      0

      主題

      94

      帖子

      63

      積分

      初級會員

      Rank: 2

      積分
      63
      沙發
      發表于 2022-1-13 22:59:31 | 只看該作者
      鏈接呢 版主?
      回復

      使用道具 舉報

    4. TA的每日心情
      慵懶
      2022-11-21 23:05
    5. 簽到天數: 5 天

      [LV.2]偶爾看看I

      0

      主題

      60

      帖子

      36

      積分

      新手上路

      Rank: 1

      積分
      36
      板凳
      發表于 2022-1-13 23:20:25 | 只看該作者
      感謝分享~~
      回復

      使用道具 舉報

    6. TA的每日心情
      開心
      2022-4-1 15:40
    7. 簽到天數: 1 天

      [LV.1]初來乍到

      0

      主題

      291

      帖子

      75

      積分

      初級會員

      Rank: 2

      積分
      75
      地板
      發表于 2022-1-13 23:21:46 | 只看該作者
      感謝樓主分享這么優秀的電影
      回復

      使用道具 舉報

    8. TA的每日心情
      難過
      2022-4-2 00:03
    9. 簽到天數: 2 天

      [LV.1]初來乍到

      0

      主題

      199

      帖子

      239

      積分

      初級會員

      Rank: 2

      積分
      239
      5#
      發表于 2022-1-13 23:54:25 | 只看該作者

      感謝分享~~
      回復

      使用道具 舉報

    10. TA的每日心情
      無聊
      2022-4-12 12:48
    11. 簽到天數: 2 天

      [LV.1]初來乍到

      0

      主題

      92

      帖子

      212

      積分

      初級會員

      Rank: 2

      積分
      212
      6#
      發表于 2022-1-14 00:08:50 | 只看該作者
      吾問無為謂
      回復

      使用道具 舉報

      該用戶從未簽到

      0

      主題

      64

      帖子

      25

      積分

      新手上路

      Rank: 1

      積分
      25
      7#
      發表于 2022-1-14 00:11:41 | 只看該作者
      謝謝樓主分享,好資源。
      回復

      使用道具 舉報

      該用戶從未簽到

      0

      主題

      21

      帖子

      32

      積分

      新手上路

      Rank: 1

      積分
      32
      8#
      發表于 2022-1-14 00:36:35 | 只看該作者
      66666666666666666666666666666666
      回復

      使用道具 舉報

      該用戶從未簽到

      0

      主題

      73

      帖子

      9

      積分

      新手上路

      Rank: 1

      積分
      9
      9#
      發表于 2022-1-14 00:38:33 | 只看該作者
      jhfhiugjhghgyig
      回復

      使用道具 舉報

    12. TA的每日心情
      開心
      2022-4-1 21:35
    13. 簽到天數: 1 天

      [LV.1]初來乍到

      0

      主題

      157

      帖子

      82

      積分

      初級會員

      Rank: 2

      積分
      82
      10#
      發表于 2022-1-14 00:47:09 | 只看該作者
      感謝分享~~
      回復

      使用道具 舉報

      您需要登錄后才可以回帖 登錄 | 立即注冊

      本版積分規則

      為防丟失網站網址,敬請關注官方微信公眾號,再也不會迷路!
      4K天堂會一路堅持,共建高清電影愛好者的精神家園。

      Archiver|手機版|小黑屋|4K電影下載

      GMT+8, 2022-12-1 23:50 , Processed in 0.140620 second(s), 26 queries , Gzip On.

      Powered by Discuz! X3.4

      Copyright © 2001-2020, Tencent Cloud.

      快速回復 返回頂部 返回列表
      中国丰满熟妇人妻AV无码,性姿势动态图片视频,少妇私密spa摸好高潮,日日噜噜夜夜狠狠视频欧美人